Чепелуэйт 1 сезон (2021) 1 сезон (2021) 7 серия Amedia скачать бесплатно торрент в хорошем качестве

Чепелуэйт (1 сезон/2021/WEB-DL/WEB-DLRip)

28 сентября 2021 09:04
Чепелуэйт / Chapelwaite [01×01-07 из 10] (2021) WEB-DL 1080p | Amedia .torrent

[Дополнительная информация о раздаче (нажмите для просмотра)]

Перевод: Профессиональный (многоголосый, закадровый) Кириллица по заказу Amedia
Качество: WEB-DL 1080p
Формат: Matroska
Видео: 1920×1080 at 23.976 fps, MPEG-4 AVC, ~7000 kbps avg
Аудио#1: Russian: 48 kHz, AC3, 3/2 (L,C,R,l,r) + LFE ch, ~384 kbps avg |Многоголосый закадровый, Кириллица по заказу Amedia|
Аудио#2: English: 48 kHz, E-AC3, 3/2 (L,C,R,l,r) + LFE ch, ~640 kbps avg
Субтитры: Russian (Forced, Full), English (SDH)

19,1 Gb
0

28 сентября 2021 09:04
Чепелуэйт / Chapelwaite [01×01-06 из 10] (2021) WEB-DL 1080p | LostFilm .torrent

[Дополнительная информация о раздаче (нажмите для просмотра)]

Перевод: Профессиональный (многоголосый, закадровый) LostFilm
Качество: WEB-DL 1080p
Формат: Matroska
Видео: 1920×1080 at 23.976 fps, MPEG-4 AVC, ~7000 kbps avg
Аудио#1: Russian: 48 kHz, AC3, 2/0 (L,R) ch, ~384 kbps avg |Многоголосый закадровый, LostFilm|
Аудио#2: English: 48 kHz, E-AC3, 3/2 (L,C,R,l,r) + LFE ch, ~640 kbps avg
Субтитры: Russian (Forced, Full), English (SDH)
Видео: Идентификатор : 1 Формат : AVC Формат/Информация : Advanced Video Codec Профиль формата : [email protected] Настройки формата : CABAC / 4 Ref Frames Параметр CABAC формата : Да Параметр RefFrames формата : 4 кадра Идентификатор кодека : V_MPEG4/ISO/AVC Продолжительность : 1 ч. 0 м. Вид битрейта : Постоянный Битрейт : 7 018 Кбит/сек Номинальный битрейт : 10 000 Кбит/сек Ширина : 1 920 пикселей Высота : 1 080 пикселей Соотношение сторон : 16:9 Режим частоты кадров : Постоянный Частота кадров : 23,976 (24000/1001) кадра/сек Цветовое пространство : YUV Субдискретизация насыщенности : 4:2:0 Битовая глубина : 8 бит Тип развёртки : Прогрессивная Бит/(Пиксели*Кадры) : 0.141 Размер потока : 2,95 Гбайт (87%) Default : Да Forced : Нет Цветовой диапазон : Limited Основные цвета : BT.709 Характеристики трансфера : BT.709 Коэффициенты матрицы : BT.709
Аудио #1: Идентификатор : 2 Формат : AC-3 Формат/Информация : Audio Coding 3 Коммерческое название : Dolby Digital Идентификатор кодека : A_AC3 Продолжительность : 1 ч. 0 м. Вид битрейта : Постоянный Битрейт : 384 Кбит/сек Каналы : 2 канала Channel layout : L R Частота : 48,0 КГц Частота кадров : 31,250 кадров/сек (1536 SPF) Метод сжатия : С потерями Размер потока : 165 Мбайт (5%) Язык : Russian Service kind : Complete Main Default : Да Forced : Нет
Аудио #2: Идентификатор : 3 Формат : E-AC-3 Формат/Информация : Enhanced AC-3 Коммерческое название : Dolby Digital Plus Идентификатор кодека : A_EAC3 Продолжительность : 1 ч. 0 м. Вид битрейта : Постоянный Битрейт : 640 Кбит/сек Каналы : 6 каналов Channel layout : L R C LFE Ls Rs Частота : 48,0 КГц Частота кадров : 31,250 кадров/сек (1536 SPF) Метод сжатия : С потерями Размер потока : 276 Мбайт (8%) Язык : English Service kind : Complete Main Default : Нет Forced : Нет

15,98 Gb
0

28 сентября 2021 09:04
Чепелуэйт / Chapelwaite [01×01-06 из 10] (2021) WEB-DLRip | LostFilm .torrent

[Дополнительная информация о раздаче (нажмите для просмотра)]

Перевод: Профессиональный (многоголосый, закадровый) LostFilm
Качество: WEB-DLRip
Формат: AVI
Видео: 704×352 at 23.976 fps, XviD, ~1700 kbps avg
Аудио: Russian: 48 kHz, MP3, 2/0 (L,R) ch, ~128 kbps avg |Многоголосый закадровый, LostFilm|
Субтитры: None

3,7 Gb
0

23 сентября 2021 07:17
Чепелуэйт / Chapelwaite [01×01-06 из 10] (2021) WEB-DLRip | ViruseProject .torrent

[Дополнительная информация о раздаче (нажмите для просмотра)]

Перевод: Профессиональный (двухголосый, закадровый) [ViruseProject]
Кодек: XviD
Качество: WEB-DLRip
Видео: 720×360 (2:000), 23.976 кадров/сек, XviD, ~1600 Кбит/сек
Аудио #1: 48,0 КГц, MP3, 2 канала, 128 Кбит/сек — русский
Аудио #2: 48,0 КГц, MP3, 2 канала, 128 Кбит/сек — английский
Субтитры: Русские, английские

4,01 Gb
0

23 сентября 2021 07:17
Чепелуэйт / Chapelwaite [01×01-06 из 10] (2021) WEB-DL 1080p | ViruseProject .torrent

[Дополнительная информация о раздаче (нажмите для просмотра)]

Перевод: Профессиональный (двухголосый, закадровый) [ViruseProject]
Кодек: AVC
Качество: WEB-DL 1080p
Видео: 1 920×1 080 (16:9), ~10 000 Кбит/сек, 23.976 кадров/сек, 8 бит
Аудио #1: 48,0 КГц, AC3, 6 канальный, 640 Кбит/сек — русский
Аудио #2: 48,0 КГц, EAC3, 6 канала, 640 Кбит/сек — английский
Субтитры: Русские, английские

16,52 Gb
0

21 сентября 2021 06:50
Чепелуэйт / Chapelwaite [01×01-06 из 10] (2021) WEB-DL 1080p | AlexFilm .torrent

[Дополнительная информация о раздаче (нажмите для просмотра)]

Перевод: Профессиональный (многоголосый закадровый) |AlexFilm
Кодек: AVC
Качество: WEB-DL 1080p
Видео: 1920×1080 (16:9), 23.976 fps, ~ 7000 Kbps
Аудио №1: AC3, 48,0 kHz, 6 ch, 384 kbps | AlexFilm
Аудио №2: AC3, 48,0 kHz, 6 ch, 640 kbps | Original
Субтитры: Английские (Full, SDH)

15,98 Gb
0

21 сентября 2021 06:50
Чепелуэйт / Chapelwaite [01х01-05 из 10] (2021) WEB-DLRip | Amedia .torrent

[Дополнительная информация о раздаче (нажмите для просмотра)]

Перевод: Профессиональный многоголосый (Кириллица по заказу Amedia)
Качество: WEB-DLRip
Видео: XviD, ~ 1350 Кбит/с, 704×352
Аудио: Русский, английский (AC3, 2 ch, 192 Кбит/с)
Субтитры: Русские (Forced, Full), английские (SDH)

3,59 Gb
0

Перейти в источник

скачать торрент
Медиа новости: знаменитости, события, новинки