Ледяной драйв (2021/WEB-DL/WEB-DLRip) скачать бесплатно торрент в хорошем качестве

Ледяной драйв (2021/WEB-DL/WEB-DLRip)

18 июля 2021 08:28
Ледяной драйв / The Ice Road (2021) WEB-DLRip | iTunes .torrent

[Дополнительная информация о раздаче (нажмите для просмотра)]

Перевод: Профессиональный (полное дублирование) |iTunes
Качество: WEB-DLRip
Формат: AVI
Видео: 688×288 (2.39:1), 23.976 fps, XviD build 73 ~818 kbps avg, 0.17 bit/pixel
Аудио: 48 kHz, MPEG Layer 3, 2 ch, ~128.00 kbps avg | русский |iTunes
Субтитры: Русские (форсированные, полные) отдельно

747,16 Mb
0

18 июля 2021 08:28
Ледяной драйв / The Ice Road (2021) WEB-DLRip-AVC | iTunes .torrent

[Дополнительная информация о раздаче (нажмите для просмотра)]

Перевод: Дублированный — iTunes
Кодек: AVC
Формат: MKV
Качество: WEB-DLRip-AVC
Видео: MPEG-4 AVC, 1024×428, 23.976 fps, 2045 kb/s
Субтитры: Russian (Forced, Full), English

2,2 Gb
0

18 июля 2021 08:28
Ледяной драйв / The Ice Road (2021) WEB-DL 1080p | iTunes .torrent

[Дополнительная информация о раздаче (нажмите для просмотра)]

Перевод: Дублированный | iTunes
Качество: WEB-DL 1080p
Видео: MPEG-4 AVC, 1920×800, 3583 Kbit/s, 23.976 fps
Аудио #01: 48 kHz, AC3, 5.1, 384 Kbps | iTunes |RUS |
Аудио #02: 48 kHz, AC3, 5.1, 384 Kbps | Оригинал |ENG |
Субтитры: Русские (Forced, full), английские

3,3 Gb
0

18 июля 2021 08:28
Ледяной драйв / The Ice Road (2021) WEB-DL-HEVC 2160p | 4K | SDR | iTunes .torrent

[Дополнительная информация о раздаче (нажмите для просмотра)]

Перевод: Профессиональный дублированный |iTunes
Кодек: H.265
Качество: WEB-DL 2160p
Видео: HEVC, 3840×2160 (16:9), 23.976 fps, 14.8 Mb/s
Аудио 1: AC3, 48.0 kHz, 6 ch, 384 kb/s |
Аудио 2: E-AC3, 48.0 kHz, 6 ch, 640 kb/s |
Субтитры: Русские (Forced, full), английские (Full, SDH)
Видео: Идентификатор : 1 Формат : HEVC Формат/Информация : High Efficiency Video Coding Профиль формата : [email protected]@Main Идентификатор кодека : V_MPEGH/ISO/HEVC Продолжительность : 1 ч. 49 м. Битрейт : 14,8 Мбит/сек Ширина : 3 840 пикселей Высота : 2 160 пикселей Соотношение сторон : 16:9 Режим частоты кадров : Постоянный Частота кадров : 23,976 (24000/1001) кадра/сек Цветовое пространство : YUV Субдискретизация насыщенности : 4:2:0 Битовая глубина : 8 бит Бит/(Пиксели*Кадры) : 0.075 Размер потока : 11,3 Гбайт (94%) Default : Да Forced : Нет Цветовой диапазон : Limited Основные цвета : BT.709 Характеристики трансфера : BT.709 Коэффициенты матрицы : BT.709
Аудио #1: Идентификатор : 2 Формат : AC-3 Формат/Информация : Audio Coding 3 Коммерческое название : Dolby Digital Идентификатор кодека : A_AC3 Продолжительность : 1 ч. 49 м. Вид битрейта : Постоянный Битрейт : 384 Кбит/сек Каналы : 6 каналов Channel layout : L R C LFE Ls Rs Частота : 48,0 КГц Частота кадров : 31,250 кадров/сек (1536 SPF) Метод сжатия : С потерями Размер потока : 300 Мбайт (2%) Заголовок : DUB (iTunes) Язык : Russian Service kind : Complete Main Default : Да Forced : Нет
Аудио #2: Идентификатор : 3 Формат : E-AC-3 Формат/Информация : Enhanced AC-3 Коммерческое название : Dolby Digital Plus Идентификатор кодека : A_EAC3 Продолжительность : 1 ч. 49 м. Вид битрейта : Постоянный Битрейт : 640 Кбит/сек Каналы : 6 каналов Channel layout : L R C LFE Ls Rs Частота : 48,0 КГц Частота кадров : 31,250 кадров/сек (1536 SPF) Метод сжатия : С потерями Размер потока : 500 Мбайт (4%) Заголовок : Original Язык : English Service kind : Complete Main Default : Нет Forced : Нет

12,11 Gb
0

18 июля 2021 08:28
Ледяной драйв / The Ice Road (2021) WEB-DL-HEVC 2160p | 4K | HDR | iTunes .torrent

[Дополнительная информация о раздаче (нажмите для просмотра)]

Перевод: Профессиональный дублированный |iTunes
Кодек: H.265
Качество: WEB-DL 2160p
Видео: MPEG-H HEVC, HDR10+, 3840×2160 (16:9), 23.976 fps, 14.8 Mb/s, 10 Bit
Аудио 1: AC3, 48.0 kHz, 6 ch, 384 kb/s |
Аудио 2: E-AC3, 48.0 kHz, 6 ch, 640 kb/s |
Субтитры: Русские (Forced, full), английские (Full, SDH)
Видео: Идентификатор : 1 Формат : HEVC Формат/Информация : High Efficiency Video Coding Профиль формата : Main [email protected]@Main HDR format : SMPTE ST 2094 App 4, Version 1, HDR10+ Profile B compatible Идентификатор кодека : V_MPEGH/ISO/HEVC Продолжительность : 1 ч. 49 м. Битрейт : 14,8 Мбит/сек Ширина : 3 840 пикселей Высота : 2 160 пикселей Соотношение сторон : 16:9 Режим частоты кадров : Постоянный Частота кадров : 23,976 (24000/1001) кадра/сек Цветовое пространство : YUV Субдискретизация насыщенности : 4:2:0 Битовая глубина : 10 бит Бит/(Пиксели*Кадры) : 0.075 Размер потока : 11,3 Гбайт (94%) Default : Да Forced : Нет Цветовой диапазон : Limited Основные цвета : BT.2020 Характеристики трансфера : PQ Коэффициенты матрицы : BT.2020 non-constant Mastering display color primaries : Display P3 Mastering display luminance : min: 0.0001 cd/m2, max: 1000 cd/m2 Maximum Content Light Level : 773 cd/m2 Maximum Frame-Average Light Level : 281 cd/m2
Аудио #1: Идентификатор : 2 Формат : AC-3 Формат/Информация : Audio Coding 3 Коммерческое название : Dolby Digital Идентификатор кодека : A_AC3 Продолжительность : 1 ч. 49 м. Вид битрейта : Постоянный Битрейт : 384 Кбит/сек Каналы : 6 каналов Channel layout : L R C LFE Ls Rs Частота : 48,0 КГц Частота кадров : 31,250 кадров/сек (1536 SPF) Метод сжатия : С потерями Размер потока : 300 Мбайт (2%) Заголовок : DUB (iTunes) Язык : Russian Service kind : Complete Main Default : Да Forced : Нет
Аудио #2: Идентификатор : 3 Формат : E-AC-3 Формат/Информация : Enhanced AC-3 Коммерческое название : Dolby Digital Plus Идентификатор кодека : A_EAC3 Продолжительность : 1 ч. 49 м. Вид битрейта : Постоянный Битрейт : 640 Кбит/сек Каналы : 6 каналов Channel layout : L R C LFE Ls Rs Частота : 48,0 КГц Частота кадров : 31,250 кадров/сек (1536 SPF) Метод сжатия : С потерями Размер потока : 500 Мбайт (4%) Заголовок : Original Язык : English Service kind : Complete Main Default : Нет Forced : Нет

12,09 Gb
0

18 июля 2021 08:28
Ледяной драйв / The Ice Road (2021) WEB-DL 720p | iTunes .torrent

[Дополнительная информация о раздаче (нажмите для просмотра)]

Перевод: Профессиональный (полное дублирование) | iTunes
Субтитры: Русские (форсированные, полные), English (Full, SDH)
Формат: Matroska
Качество: WEB-DL 720p [The.Ice.Road.2021.720p.WEB.H264-TIMECUT]
Видео: 1280×720 at 23.976 fps, [email protected], ~3084 kbps
Аудио 1: AC3, 48 kHz, 2 ch, ~384.00 kbps avg | русский |
Аудио 2: AC3, 48 kHz, 6 ch, ~448.00 kbps avg | английский |

2,99 Gb
0

18 июля 2021 08:28
Ледяной драйв / The Ice Road (2021) WEB-DLRip | iTunes .torrent

[Дополнительная информация о раздаче (нажмите для просмотра)]

Перевод: Профессиональный (полное дублирование) |iTunes
Качество: WEB-DLRip
Формат: AVI
Кодек: XviD
Видео: 720×304 (2.35:1), 25 fps, XviD ~ 1516 Kbps avg, 0.289 bit/pixel
Аудио: AC3, 48 kHz, 6 ch, ~384.00 kbps avg | русский |iTunes
Субтитры: Русские (форсированные, полные) отдельно

1,46 Gb
0

18 июля 2021 08:28
Ледяной драйв / The Ice Road (2021) WEB-DL 1080p | iTunes .torrent

[Дополнительная информация о раздаче (нажмите для просмотра)]

Формат: MKV
Качество: WEB-DL 1080p |AMAZON Version
Видео: MPEG-4 AVC, 5963 Кb/s, 1920×1080
Аудио #1: Russian: 48 kHz, AC3 Dolby Digital, 3/2 (L, C, R, l, r) + LFE ch, ~384 Kbps | DUB | iTunes
Аудио #2: English: 48 kHz, Enhanced AC3 Dolby Digital, 3/2 (L, C, R, l, r) + LFE ch, ~640 Kbps | Original
Субтитры: Russian (Forced, Full), English

5,33 Gb
0

Перейти в источник

скачать торрент
Медиа новости: знаменитости, события, новинки